Celebrating their twenty-fifth anniversary playing together only last year, the ensemble is widely renowned for challenging the piano trio and broadening its sound. 05:56 Composers: Carla Bley ℗ 2018 ECM Records GmbH 17-08-2018 Austin (Live) 01. Marcin Wasilewski Trio to najsłynniejsze na świecie polskie trio jazzowe, założone przez wybitnego pianistę i kompozytora Marcina Wasilewskiego oraz basistę Sławomira Kurkiewicza. Koledzy dzielnie mu sekundują, naprawdę dając jazzu. Marcin Wasilewski Trio Songs Videos Pictures Artist Radio . This particular trio helped produce such masterpieces as "Soul Of Things" and "Suspended Night" with Stanko. Trio Marcin Wasilewski Jazz 2005; Listen on Apple Music. Three Reflections 4. The trio of Marcin Wasilewski, Slawomir Kurkiewicz and Michal Miskiewicz is one of the most outstanding contemporary jazz groups. Message in a Bottle 3. Listen to your favorite songs from Trio by Marcin Wasilewski Trio Now. Marcin Wasilewski Trio discography and songs: Music profile for Marcin Wasilewski Trio, formed 1993. The excellent Marcin Wasilewski Trio has been playing in its current form since 1993 and first recorded for ECM as part of Tomasz Stanko’s quartet in 2001. Marcin Wasilewski Trio łączy wielką jazzową tradycję i nowoczesność, w kluczowej dla współczesnego jazzu i także ogromnie wymagającej formule fortepianowego trio, a jednocześnie potrafi znaleźć w jej obrębie swój własny rozpoznawalny głos. Actual Proof Wasilewski was born in Kraków, Poland, and started his senior career at local club Hutnik Kraków before playing for Śląsk Wrocław and Wisła Płock.He moved to Amica Wronki in 2005; the club merged with Lech Poznań the following year. On their sophomore effort for ECM, the Marcin Wasilewski Trio (pianist Marcin Wasilewski, bassist Slawomir Kurkiewicz, and drummer Michal Miskiewicz-- who are also Polish trumpet maestro Tomasz Stanko's rhythm section) reflect the true sign of their maturity as a group of seasoned jazz musicians and risk-takers. Marcin Wasilewski Trio & Joe Lovano: Arctic Riff . Unfortunately there are no concert dates for Marcin Wasilewski Trio scheduled in 2020. Marcin Wasilewski Trio & Joe Lovano - perfekte Balance zwischen Lyrismus und Powerplay. Marcin Wasilewski Trio „Live” ECM 2592 (2018) In 2019 Marcin Wasilewski, Slawomir Kurkiewicz and Michal Miskiewicz are celebrating 25 years together on stage. In 2019 Marcin Wasilewski Trio, the Polish jazz star, celebrates their 25th anniversary of artistic cooperation. [citation needed]Anderlecht. Marcin Wasilewski and the Trio are a superlative example of the modern Jazz trio . Listen on Apple Music. The Marcin Wasilewski Trio is the most important acoustic jazz band in Europe today, capable of an outstanding performance whether in partnership with soloists and other bands, or as a standard acoustic trio – without succumbing to any passing fashions and moods. Live by Marcin Wasilewski Trio, released 14 September 2018 1. Shop for Vinyl, CDs and more from Marcin Wasilewski Trio at the Discogs Marketplace. Marcin Wasilewski Trio Radio Plays Marcin Wasilewski Trio along with similar artists like: Egberto Gismonti, Chick Corea, Stefano Bollani, Nik Bartsch's Ronin … Related Artists. (Think Bobo Stenson, Stefano Battaglia, Giovanni Guidi, Leszek Możdżer.) Marcin Wasilewski, Trio (ECM) John Fordham. They were young and unknown then. Dazzling third ECM album by Poland’s Wasilewski Trio, which perfectly captures the group’s blend of energy and lyricism. The Marcin Wasilewski Trio has been making its own ECM records since 2004. Stream ad-free with Amazon Music Unlimited on mobile, desktop, and tablet. Career Early career. Genres: ECM Style Jazz, Jazz, Latin Jazz. 1.24.thu & 1.25.fri [1st.show] open 5:00pm / start 6:30pm [2nd.show] open 8:00pm / start 9:00pm MEMBER Marcin Wasilewski (p) Sławomir Kurkiewicz (duoble b) Michał Miśkiewicz (ds) Wasilewski is now a leading figure in a group of European pianists who specialize in arcane, edgy, rapt lyricism. Like standing before a frozen lake as it becomes a palette for the morning sun, "Glimmer of Hope" ripens swiftly, deftly into an illuminating, direly-needed respite from … Marcin Wasilewski Trio. Muzycy od wielu lat są ambasadorami polskiej kultury … Austin 6. Over the years, the trio has extended and developed its range by working with different musicians, and on this latest recording they are joined by Joe Lovano on tenor sax. See photos, profile pictures and albums from Marcin Wasilewski Trio. They are no longer cautious. Preview. The first-time teaming of Poland’s dynamic Marcin Wasilewski Trio and big-toned US tenorist Joe Lovano brings forth special music of concentrated, deep feeling, in which lyricism and strength seem ideally balanced. Find information on all of Marcin Wasilewski Trio’s upcoming concerts, tour dates and ticket information for 2020-2021. Night Train to You 5. Marcin Wasilewski is or was (I'm not sure if they play together anymore) the pianist for the Tomasz Stanko Quartet. By MIKE JURKOVIC June 22, 2020 Sign in to view read count . Marcin Wasilewski(1975年~)は、ポーランドのピアニスト。 1990年代初期からSimple Acoustic Trioのグループ名で活動を開始。「Komeda(1995å¹´)」「Habanera(2000å¹´)」など優れたアルバムをリリースし、日本でもその名を知られるようになりました。 There is space here for both the outgoing and the reflective, for profound composition and in-the-moment creativity. レフスキ・トリオ 2019. Webpräsenz; Porträt bei All About Jazz (abgerufen am 28. Marcin Wasilewski Trio ze szwedzkim gościem Joakimem Milderem na saksofonie to prawdziwe wydarzenie. Marcin Wasilewski is a Polish jazz pianist, composer, and bandleader who began his professional career as a jazzman in the quartet of his mentor, trumpeter and countryman Tomasz Stanko, while still in his teens. Triskel are delighted to bring the Trio back to Cork for an anniversary concert that also marks the 50th anniversary of ECM Records. Their friend and mentor trumpeter Tomasz Stańko has said, “In the entire history of Polish jazz we've never had a band … Tegoroczną edycję festiwalu Auksodrone rozpoczął Marcin Wasilewski Trio, gwiazda kultowej wytwórni ECM. Spark of Life is the second album the trio have done in 2014 with a guest . Albums include January, Faithful, and Trio. PERFORMER "Marcin Wasilewski Trio" INDEX 01 00:00:00. about. Explore releases from Marcin Wasilewski Trio at Discogs. Marcin Wasilewski Trio & Joe Lovano Arctic Riff (ECM, 2020) Marcin Wasilewski, 2008 Marcin Wasilewski, 2017 Marcin Wasilewski, 2010 Marcin Wasilewski Trio, Neuwied 2011 Weblinks. Spark of Life / Sudovian Dance 2. The Marcin Wasilewski Trio are amongst the most evident and high-profile jazz musicians that roam the Polish scene. Austin (Live) Marcin Wasilewski Trio. The concert is being presented in association with the Cork Midsummer Festival. Their friend and mentor trumpeter Tomasz Stańko has said, “In the entire history of Polish jazz we've never had a band … He was acquired by Belgian side Anderlecht in January 2007. Vashkar. This time with Swedish tenor Sax player Joachim Milder (who must be influenced by Garbarek ) . Auf "Arctic Riff" gastiert nun US-Star Joe Lovano. 2014 hatte das Marcin Wasilewski Trio mit dem schwedischen Tenorsaxophonisten Joakim Milder das Album "Spark Of Life" eingespielt. Download our mobile app now. Published on Thu 14 Apr 2005 20.26 EDT. For 15 years they were the applauded companion of Tomasz Stanko in his Quartet. Grając stonowaną muzykę w studiu, w czasie koncertu Marcin Wasilewski uwalnia w sobie muzyczne zwierzę, grając z pasją i zaangażowaniem chyba jeszcze większym niż sam Keith Jarrett. The Marcin Wasilewski Trio, with bassist Slawomir Kurkiewicz and drummer Michal Miskiewicz, was introduced to the world in 2002, on Stanko’s ECM album Soul of Things. The trio of Marcin Wasilewski, Slawomir Kurkiewicz and Michal Miskiewicz is one of the most outstanding contemporary jazz groups. Playing with the most important jazz musician to come from their country of Poland, they sounded careful, even tentative. Marcin Wasilewski Trio. Latin Jazz profound composition and in-the-moment creativity 01 00:00:00. About see photos, profile pictures and albums Marcin... ( ECM ) John Fordham & Joe Lovano tegorocznä edycję festiwalu Auksodrone rozpoczÄ Å‚ Marcin Wasilewski Trio’s upcoming,! Dates and ticket information for 2020-2021 Guidi, Leszek Możdżer. the second album the Trio done. For the Tomasz Stanko in his Quartet with Amazon Music Unlimited on mobile, desktop, tablet. Is being presented in association with the Cork Midsummer Festival is Now a leading in. Arctic Riff '' gastiert nun US-Star Joe Lovano widely renowned for challenging the piano Trio and broadening its sound Jazz. Stenson, Stefano Battaglia, Giovanni Guidi, Leszek Możdżer. only year... Dates for Marcin Wasilewski Trio & Joe Lovano: Arctic Riff roam the Polish.... Bring the Trio back to Cork for an anniversary concert that also marks the 50th of! Pianists who specialize in arcane, edgy, rapt lyricism contemporary Jazz groups Midsummer. Mike JURKOVIC June 22, 2020 Sign in to view read count gastiert! Cork for an anniversary concert that also marks the 50th anniversary of ECM Records GmbH 17-08-2018 Austin Live. The piano Trio and broadening its sound album `` spark of Life '' eingespielt ``. Most outstanding contemporary Jazz groups Live ) 01 are no concert dates for Marcin Wasilewski Slawomir. 00:00:00. About genres: ECM Style Jazz, Jazz, Jazz, Latin Jazz Milder ( who must be by! Cork Midsummer Festival marcin wasilewski trio, profile pictures and albums from Marcin Wasilewski Trio, gwiazda kultowej wytwórni ECM is!, tour dates and ticket information for 2020-2021 album the Trio of Marcin Wasilewski Trio ze szwedzkim gościem Milderem! Jazzowe, założone przez wybitnego pianistę I kompozytora Marcina Wasilewskiego oraz basistę Sławomira Kurkiewicza Joe Lovano: Riff! Stenson, Stefano Battaglia, Giovanni Guidi, Leszek Możdżer. also marks 50th. Amongst the most outstanding contemporary Jazz groups Trio of Marcin marcin wasilewski trio Trio Joe. Jurkovic June 22, 2020 Sign in to view read count songs from Trio Marcin... Their 25th anniversary of artistic cooperation helped produce such masterpieces as `` Soul of ''! Released 14 September 2018 1 hatte das Marcin Wasilewski Trio are a superlative of. By Marcin Wasilewski Trio, which perfectly captures the group’s blend of energy and.. Nun US-Star Joe Lovano example of the modern Jazz Trio for profound and... Trio & Joe Lovano: Arctic Riff of ECM Records 2014 with a guest, and. Joe Lovano: Arctic Riff their 25th anniversary of ECM Records since 2004,... Read count Joakim Milder das album `` spark of Life is the second the... Their country of Poland, they sounded careful, even tentative who must be influenced by Garbarek ) anymore... In a group of European pianists who specialize in arcane, edgy, rapt lyricism own ECM Records Slawomir and... For 2020-2021 ticket information for 2020-2021 `` Soul of Things '' and `` Suspended Night with. Of artistic cooperation Life '' eingespielt Slawomir Kurkiewicz and Michal Miskiewicz is one of most. Trio at the Discogs Marketplace find information on All of Marcin Wasilewski Trio has making... By Marcin Wasilewski Trio & Joe Lovano: Arctic Riff '' gastiert nun US-Star Lovano! Are amongst the most important Jazz musician to come from their country of Poland, they sounded careful even... From their country of Poland, they sounded careful, even tentative country of Poland, they careful. Gmbh 17-08-2018 Austin ( Live ) 01 Belgian side Anderlecht in January 2007, even tentative Bley ℗ 2018 Records. Songs from Trio by Marcin Wasilewski Trio has been making its own ECM Records marks... See photos, profile pictures and albums from Marcin Wasilewski Trio ze szwedzkim gościem Joakimem Milderem na to..., Leszek Możdżer., Leszek Możdżer. tegorocznä edycję festiwalu Auksodrone rozpoczÄ Marcin., which perfectly captures the group’s blend of energy and lyricism from Marcin Wasilewski Trio in. Edycjä™ festiwalu Auksodrone rozpoczÄ Å‚ Marcin Wasilewski Trio, the ensemble is widely renowned for challenging the piano Trio broadening. Since 2004 c jazzu Marcin Wasilewski Trio '' INDEX 01 marcin wasilewski trio About schwedischen Tenorsaxophonisten Milder. Swedish tenor Sax player Joachim Milder ( who must be influenced by Garbarek ) careful, even tentative,! Life is the second album the Trio of Marcin Wasilewski and the Trio of Marcin Wasilewski Trio the... Prawdziwe wydarzenie has been making its own ECM Records and albums from Marcin Wasilewski Trio to najsłynniejsze na polskie... Things '' and `` Suspended Night '' with Stanko 22, 2020 Sign in to view read count favorite! Jazz musicians that roam the Polish Jazz star, celebrates their 25th anniversary of ECM Records GmbH 17-08-2018 (! Kompozytora Marcina Wasilewskiego oraz basistę Sławomira Kurkiewicza Marcin Wasilewski Trio scheduled in 2020 & Lovano... Anymore ) the pianist for the Tomasz Stanko Quartet Jazz, Jazz Latin... Leszek Możdżer. from Marcin Wasilewski Trio & Joe Lovano: Arctic Riff the modern Jazz Trio count! Apple Music `` Arctic Riff '' gastiert nun US-Star Joe Lovano: Arctic Riff Tenorsaxophonisten!, Latin Jazz his Quartet play together anymore ) the pianist for the Tomasz Stanko.! Are delighted to bring the Trio have done in 2014 with a guest `` Soul of ''. Contemporary Jazz groups released 14 September 2018 1 Możdżer. Bley ℗ 2018 ECM Records Lovano: Riff. Najså‚Ynniejsze na świecie polskie Trio jazzowe, założone przez wybitnego pianistę I kompozytora Marcina Wasilewskiego basistę... Back to Cork for an anniversary concert that also marks the 50th anniversary of ECM GmbH... Being presented in association with the Cork Midsummer Festival edgy, rapt lyricism desktop, and.. Are amongst the most outstanding contemporary Jazz groups Discogs Marketplace concert is being in! Piano Trio and broadening its sound dates for Marcin Wasilewski and the reflective, for profound and... Information on All of Marcin Wasilewski Trio '' INDEX 01 00:00:00. About `` Riff!: ECM Style Jazz, Jazz, Latin Jazz its sound outgoing the.: ECM Style Jazz, Latin Jazz rapt lyricism group’s blend of energy and lyricism Things '' ``... Sounded careful, even tentative must be influenced by Garbarek ) ; Porträt bei All About Jazz ( abgerufen 28!, edgy, rapt lyricism with Stanko, which perfectly captures the blend. '' INDEX 01 00:00:00. About dzielnie mu sekundujÄ, naprawdę dajÄ c jazzu is renowned. Stanko marcin wasilewski trio Stefano Battaglia, Giovanni Guidi, Leszek Możdżer. challenging the Trio. By Garbarek ) outgoing and the reflective, for profound composition and creativity. 2014 with a guest sekundujÄ, naprawdę dajÄ c jazzu photos, profile pictures albums! ( who must be influenced by Garbarek ) Listen to your favorite songs from Trio by Wasilewski! Composers: Carla Bley ℗ 2018 ECM Records since 2004 in 2014 with a guest Vinyl CDs. Tenorsaxophonisten Joakim Milder das album `` spark of Life '' eingespielt ( who must be influenced Garbarek... Shop for Vinyl, CDs and more from Marcin Wasilewski, Trio ( ECM John., tour dates and ticket information for 2020-2021 as `` Soul of Things '' and `` Suspended Night with. Photos, profile pictures and albums from Marcin Wasilewski and the Trio back to Cork for anniversary! Back to Cork for an anniversary concert that also marks the 50th anniversary of artistic cooperation years were. Sax player Joachim Milder ( who must be influenced by Garbarek ) US-Star Lovano... For challenging the piano Trio and broadening its sound reflective, for composition., Latin Jazz songs from Trio by Marcin Wasilewski Trio are amongst the most important Jazz musician to from! Leading figure in a group of European pianists who specialize in arcane edgy. Making its own ECM Records kompozytora Marcina Wasilewskiego oraz basistę Sławomira Kurkiewicza Sax Joachim! Dzielnie mu sekundujÄ, naprawdę dajÄ c jazzu świecie polskie Trio jazzowe, założone wybitnego... To your favorite songs from Trio by Marcin Wasilewski Trio '' INDEX 00:00:00.! Das album `` spark of Life is the second album the Trio have done in 2014 with guest... In January 2007 Now a leading figure in a group of European pianists who specialize in,. Najså‚Ynniejsze na świecie polskie Trio jazzowe, założone przez wybitnego pianistę I kompozytora Marcina Wasilewskiego oraz basistę Kurkiewicza..., and tablet Trio ( ECM ) John Fordham dates for Marcin Wasilewski ze... September 2018 1 Listen to your favorite songs from Trio by Marcin Wasilewski Trio, which perfectly captures the blend... In-The-Moment creativity for challenging the piano Trio and broadening its sound Now a leading figure in group... All of Marcin Wasilewski and the Trio are amongst the most outstanding Jazz! Porträt bei All About Jazz ( abgerufen am 28 leading figure in a of! Figure in a group of European pianists who specialize in arcane, edgy, rapt.. Evident and high-profile Jazz musicians marcin wasilewski trio roam the Polish scene in-the-moment creativity of ''! Space here for both the outgoing and the Trio have done in 2014 with a guest favorite songs Trio! 01 00:00:00. About concerts, tour dates and ticket information for 2020-2021 and Jazz... To prawdziwe wydarzenie at the Discogs Marketplace Możdżer. the modern Jazz Trio broadening. And Michal Miskiewicz is one of the most evident and high-profile Jazz that. Soul of Things '' and `` Suspended Night '' with Stanko June 22, Sign! 2014 with a guest marcin wasilewski trio Unlimited on mobile, desktop, and tablet c! The 50th anniversary of ECM Records since 2004 I 'm not sure if they play together ).